Team America World Police (2004) (1080p BDRip x265 10bit DTS-HD M...

  • Category Movies
  • Type HEVC/x265
  • Language English
  • Total size 7.7 GB
  • Uploaded By Goki
  • Downloads 141
  • Last checked 1 week ago
  • Date uploaded 1 week ago
  • Seeders 11
  • Leechers 3

Team America: World Police

ActionAdventureAnimationComedy

Team America World Police follows an international police force dedicated to maintaining global stability. Learning that dictator Kim Jong il is out to destroy the world, the team recruits Broadway star Gary Johnston to go undercover. With the help of Team America, Gary manages to uncover the plan to destroy the world. Will Team America be able to save it in time? It stars… Samuel L Jackson, Tim Robbins, Sean Penn, Michael Moore, Helen Hunt, Matt Damon, Susan Sarandon, George Clooney, Danny Glover, Ethan Hawke, Alec Baldwin… or does it?

Infohash : 6E4F91A0CD56E82500ABAD68924C04F82A41F753



Hello everyone,
We are TAoE, a small team of passionate encoders who love encoding. We try our best to provide you with high quality releases.

Requests for movies and shows are welcome.
We have a form for encode requests which can be found here
Encode requests form
submit your request and it will be added to our encoding request list
You can view our encoding request list here
Encode requests list


When or if we encode it will depend on if we can obtain a good source to encode with and
if one of the TAoE encoders chooses to encode it. Unfortunately we are not able to encode everything,
new members are welcome as that helps us encode more content!

If you would like to join TAoE submit your request here!
TAoE member applications form




Team America: World Police (2004) IMDB







Source


Team.America.World.Police.2004.EUR.BluRay.Remux.1080p.AVC.DTS-HD.MA.5.1-decibeL

Media Information


General
Unique ID : 39561457825831674018092314334083130269 (0x1DC34276EAE636ED5A4342273FFBA39D)
Complete name : Team America World Police (2004) (1080p BDRip x265 10bit DTS-HD MA 5.1 - r0b0t) [TAoE].mkv
Format : Matroska
Format version : Version 4
File size : 7.67 GiB
Duration : 1 h 37 min
Overall bit rate mode : Variable
Overall bit rate : 11.2 Mb/s
Writing application : Lavf58.29.100
Writing library : Lavf58.29.100
ErrorDetectionType : Per level 1

Video
ID : 1
Format : HEVC
Format/Info : High Efficiency Video Coding
Format profile : Main [email protected]@Main
Codec ID : V_MPEGH/ISO/HEVC
Duration : 1 h 37 min
Bit rate : 8 003 kb/s
Width : 1 920 pixels
Height : 1 080 pixels
Display aspect ratio : 16:9
Frame rate mode : Constant
Frame rate : 23.976 (24000/1001) FPS
Color space : YUV
Chroma subsampling : 4:2:0
Bit depth : 10 bits
Bits/(Pixel*Frame) : 0.161
Stream size : 5.46 GiB (71%)
Title : Encoded by r0b0t for TAoE using Shinguru V1.2
Writing library : x265 3.2+35-acc5d16999e2:[Windows][GCC 9.2.1][64 bit] 10bit
Encoding settings : cpuid=1111039 / frame-threads=5 / numa-pools=12,12,12,12 / wpp / no-pmode / no-pme / no-psnr / no-ssim / log-level=2 / input-csp=1 / input-res=1920x1080 / interlace=0 / total-frames=0 / level-idc=0 / high-tier=1 / uhd-bd=0 / ref=4 / no-allow-non-conformance / no-repeat-headers / annexb / no-aud / no-hrd / info / hash=0 / no-temporal-layers / open-gop / min-keyint=23 / keyint=250 / gop-lookahead=0 / bframes=8 / b-adapt=2 / b-pyramid / bframe-bias=0 / rc-lookahead=80 / lookahead-slices=4 / scenecut=40 / hist-scenecut=0 / radl=0 / no-splice / no-intra-refresh / ctu=64 / min-cu-size=8 / no-rect / no-amp / max-tu-size=32 / tu-inter-depth=1 / tu-intra-depth=1 / limit-tu=0 / rdoq-level=2 / dynamic-rd=0.00 / no-ssim-rd / signhide / no-tskip / nr-intra=0 / nr-inter=0 / no-constrained-intra / no-strong-intra-smoothing / max-merge=3 / limit-refs=3 / limit-modes / me=3 / subme=5 / merange=57 / temporal-mvp / no-frame-dup / no-hme / weightp / no-weightb / no-analyze-src-pics / deblock=0:0 / sao / no-sao-non-deblock / rd=4 / selective-sao=4 / no-early-skip / rskip / no-fast-intra / no-tskip-fast / no-cu-lossless / no-b-intra / no-splitrd-skip / rdpenalty=0 / psy-rd=1.30 / psy-rdoq=2.00 / no-rd-refine / no-lossless / cbqpoffs=0 / crqpoffs=0 / rc=crf / crf=19.0 / qcomp=0.60 / qpstep=4 / stats-write=0 / stats-read=0 / ipratio=1.40 / pbratio=1.30 / aq-mode=4 / aq-strength=1.10 / cutree / zone-count=0 / no-strict-cbr / qg-size=32 / no-rc-grain / qpmax=69 / qpmin=0 / no-const-vbv / sar=1 / overscan=0 / videoformat=5 / range=0 / colorprim=2 / transfer=2 / colormatrix=2 / chromaloc=0 / display-window=0 / cll=0,0 / min-luma=0 / max-luma=1023 / log2-max-poc-lsb=8 / vui-timing-info / vui-hrd-info / slices=1 / no-opt-qp-pps / no-opt-ref-list-length-pps / no-multi-pass-opt-rps / scenecut-bias=0.05 / hist-threshold=0.01 / no-opt-cu-delta-qp / no-aq-motion / no-hdr10 / no-hdr10-opt / no-dhdr10-opt / no-idr-recovery-sei / analysis-reuse-level=0 / analysis-save-reuse-level=0 / analysis-load-reuse-level=0 / scale-factor=0 / refine-intra=0 / refine-inter=0 / refine-mv=1 / refine-ctu-distortion=0 / no-limit-sao / ctu-info=0 / no-lowpass-dct / refine-analysis-type=0 / copy-pic=1 / max-ausize-factor=1.0 / no-dynamic-refine / no-single-sei / no-hevc-aq / no-svt / no-field / qp-adaptation-range=1.00 / no-scenecut-aware-qpconformance-window-offsets / right=0 / bottom=0
Language : English
Default : Yes
Forced : No
Color range : Limited

Audio
ID : 2
Format : DTS XLL
Format/Info : Digital Theater Systems
Commercial name : DTS-HD Master Audio
Codec ID : A_DTS
Duration : 1 h 37 min
Bit rate mode : Variable
Bit rate : 2 685 kb/s
Channel(s) : 6 channels
Channel layout : C L R Ls Rs LFE
Sampling rate : 48.0 kHz
Frame rate : 93.750 FPS (512 SPF)
Bit depth : 24 bits
Compression mode : Lossless
Stream size : 1.83 GiB (24%)
Language : English
Default : Yes
Forced : No

Text #1
ID : 3
Format : PGS
Codec ID : S_HDMV/PGS
Codec ID/Info : Picture based subtitle format used on BDs/HD-DVDs
Duration : 1 h 36 min
Bit rate : 37.9 kb/s
Count of elements : 2196
Stream size : 26.2 MiB (0%)
Language : Danish
Default : Yes
Forced : No

Text #2
ID : 4
Format : PGS
Codec ID : S_HDMV/PGS
Codec ID/Info : Picture based subtitle format used on BDs/HD-DVDs
Duration : 1 h 36 min
Bit rate : 42.3 kb/s
Count of elements : 2480
Stream size : 29.3 MiB (0%)
Language : German
Default : No
Forced : No

Text #3
ID : 5
Format : PGS
Codec ID : S_HDMV/PGS
Codec ID/Info : Picture based subtitle format used on BDs/HD-DVDs
Duration : 1 h 36 min
Bit rate : 41.7 kb/s
Count of elements : 2428
Stream size : 28.8 MiB (0%)
Language : English
Default : No
Forced : No

Text #4
ID : 6
Format : PGS
Codec ID : S_HDMV/PGS
Codec ID/Info : Picture based subtitle format used on BDs/HD-DVDs
Duration : 1 h 37 min
Bit rate : 41.5 kb/s
Count of elements : 2490
Stream size : 28.8 MiB (0%)
Language : Spanish
Default : No
Forced : No

Text #5
ID : 7
Format : PGS
Codec ID : S_HDMV/PGS
Codec ID/Info : Picture based subtitle format used on BDs/HD-DVDs
Duration : 1 h 37 min
Bit rate : 40.3 kb/s
Count of elements : 2468
Stream size : 28.0 MiB (0%)
Language : Spanish
Default : No
Forced : No

Text #6
ID : 8
Format : PGS
Codec ID : S_HDMV/PGS
Codec ID/Info : Picture based subtitle format used on BDs/HD-DVDs
Duration : 1 h 37 min
Bit rate : 32.7 kb/s
Count of elements : 2418
Stream size : 22.7 MiB (0%)
Language : French
Default : No
Forced : No

Text #7
ID : 9
Format : PGS
Codec ID : S_HDMV/PGS
Codec ID/Info : Picture based subtitle format used on BDs/HD-DVDs
Duration : 1 h 36 min
Bit rate : 42.6 kb/s
Count of elements : 2496
Stream size : 29.5 MiB (0%)
Language : Italian
Default : No
Forced : No

Text #8
ID : 10
Format : PGS
Codec ID : S_HDMV/PGS
Codec ID/Info : Picture based subtitle format used on BDs/HD-DVDs
Duration : 1 h 36 min
Bit rate : 32.3 kb/s
Count of elements : 2688
Stream size : 22.4 MiB (0%)
Language : Japanese
Default : No
Forced : No

Text #9
ID : 11
Format : PGS
Codec ID : S_HDMV/PGS
Codec ID/Info : Picture based subtitle format used on BDs/HD-DVDs
Duration : 1 h 36 min
Bit rate : 36.6 kb/s
Count of elements : 2480
Stream size : 25.3 MiB (0%)
Language : Dutch
Default : No
Forced : No

Text #10
ID : 12
Format : PGS
Codec ID : S_HDMV/PGS
Codec ID/Info : Picture based subtitle format used on BDs/HD-DVDs
Duration : 1 h 36 min
Bit rate : 34.9 kb/s
Count of elements : 2412
Stream size : 24.2 MiB (0%)
Language : Norwegian
Default : No
Forced : No

Text #11
ID : 13
Format : PGS
Codec ID : S_HDMV/PGS
Codec ID/Info : Picture based subtitle format used on BDs/HD-DVDs
Duration : 1 h 37 min
Bit rate : 41.6 kb/s
Count of elements : 2484
Stream size : 28.9 MiB (0%)
Language : Portuguese
Default : No
Forced : No

Text #12
ID : 14
Format : PGS
Codec ID : S_HDMV/PGS
Codec ID/Info : Picture based subtitle format used on BDs/HD-DVDs
Duration : 1 h 37 min
Bit rate : 34.1 kb/s
Count of elements : 2112
Stream size : 23.7 MiB (0%)
Language : Finnish
Default : No
Forced : No

Text #13
ID : 15
Format : PGS
Codec ID : S_HDMV/PGS
Codec ID/Info : Picture based subtitle format used on BDs/HD-DVDs
Duration : 1 h 36 min
Bit rate : 39.3 kb/s
Count of elements : 2398
Stream size : 27.2 MiB (0%)
Language : Swedish
Default : No
Forced : No

Text #14
ID : 16
Format : PGS
Codec ID : S_HDMV/PGS
Codec ID/Info : Picture based subtitle format used on BDs/HD-DVDs
Duration : 1 h 36 min
Bit rate : 45.4 kb/s
Count of elements : 2672
Stream size : 31.3 MiB (0%)
Language : English
Default : No
Forced : No

Text #15
ID : 17
Format : PGS
Codec ID : S_HDMV/PGS
Codec ID/Info : Picture based subtitle format used on BDs/HD-DVDs
Duration : 1 h 36 min
Bit rate : 6 325 b/s
Count of elements : 514
Stream size : 4.37 MiB (0%)
Language : Japanese
Default : No
Forced : No

Menu
00:00:00.000 : :Terrorize This
00:06:43.820 : :Top Gun Actor
00:13:27.932 : :Welcome to Team Base
00:18:33.696 : :Or Should I Say Hakmed?
00:24:19.375 : :I Like Balls
00:31:18.418 : :Bakalakadaka Street
00:38:05.700 : :I Promise, I Will Never Die
00:43:40.910 : :Panama Canal
00:49:47.067 : :We Have No Intelligence!
00:54:51.580 : :I'm So Ronery
01:00:11.858 : :Film Actors Guild
01:06:07.213 : :Montage
01:11:50.306 : :We're Guards!
01:17:11.502 : :Panthers
01:22:34.533 : :I'm A Smoker
01:30:17.078 : :So Long Earthlings!

Source Information


General
Complete name : Team.America.World.Police.2004.EUR.BluRay.Remux.1080p.AVC.DTS-HD.MA.5.1-decibeL.mkv
Format : Matroska
Format version : Version 4
File size : 24.3 GiB
Duration : 1 h 37 min
Overall bit rate mode : Variable
Overall bit rate : 35.7 Mb/s
Encoded date : UTC 2013-07-09 23:38:15
Writing application : mkvmerge v6.3.0 ('You can't stop me!') built on Jun 28 2013 20:09:41
Writing library : libebml v1.3.0 + libmatroska v1.4.0

Video
ID : 1
Format : AVC
Format/Info : Advanced Video Codec
Format profile : [email protected]
Format settings : CABAC / 4 Ref Frames
Format settings, CABAC : Yes
Format settings, Reference : 4 frames
Codec ID : V_MPEG4/ISO/AVC
Duration : 1 h 37 min
Bit rate mode : Variable
Maximum bit rate : 35.0 Mb/s
Width : 1 920 pixels
Height : 1 080 pixels
Display aspect ratio : 16:9
Frame rate mode : Constant
Frame rate : 23.976 (24000/1001) FPS
Color space : YUV
Chroma subsampling : 4:2:0
Bit depth : 8 bits
Scan type : Progressive
Title : MPEG-4 AVC Video / 33737 kbps / 1080p / 23.976 fps / 16:9 / High Profile 4.1
Language : English
Default : Yes
Forced : No

Audio
ID : 2
Format : DTS XLL
Format/Info : Digital Theater Systems
Commercial name : DTS-HD Master Audio
Codec ID : A_DTS
Duration : 1 h 37 min
Bit rate mode : Variable
Channel(s) : 6 channels
Channel layout : C L R Ls Rs LFE
Sampling rate : 48.0 kHz
Frame rate : 93.750 FPS (512 SPF)
Bit depth : 24 bits
Compression mode : Lossless
Language : English
Default : Yes
Forced : No

Text #1
ID : 3
Format : PGS
Muxing mode : zlib
Codec ID : S_HDMV/PGS
Codec ID/Info : Picture based subtitle format used on BDs/HD-DVDs
Language : Danish
Default : Yes
Forced : No

Text #2
ID : 4
Format : PGS
Muxing mode : zlib
Codec ID : S_HDMV/PGS
Codec ID/Info : Picture based subtitle format used on BDs/HD-DVDs
Language : German
Default : No
Forced : No

Text #3
ID : 5
Format : PGS
Muxing mode : zlib
Codec ID : S_HDMV/PGS
Codec ID/Info : Picture based subtitle format used on BDs/HD-DVDs
Language : English
Default : No
Forced : No

Text #4
ID : 6
Format : PGS
Muxing mode : zlib
Codec ID : S_HDMV/PGS
Codec ID/Info : Picture based subtitle format used on BDs/HD-DVDs
Language : Spanish
Default : No
Forced : No

Text #5
ID : 7
Format : PGS
Muxing mode : zlib
Codec ID : S_HDMV/PGS
Codec ID/Info : Picture based subtitle format used on BDs/HD-DVDs
Language : Spanish
Default : No
Forced : No

Text #6
ID : 8
Format : PGS
Muxing mode : zlib
Codec ID : S_HDMV/PGS
Codec ID/Info : Picture based subtitle format used on BDs/HD-DVDs
Language : French
Default : No
Forced : No

Text #7
ID : 9
Format : PGS
Muxing mode : zlib
Codec ID : S_HDMV/PGS
Codec ID/Info : Picture based subtitle format used on BDs/HD-DVDs
Language : Italian
Default : No
Forced : No

Text #8
ID : 10
Format : PGS
Muxing mode : zlib
Codec ID : S_HDMV/PGS
Codec ID/Info : Picture based subtitle format used on BDs/HD-DVDs
Language : Japanese
Default : No
Forced : No

Text #9
ID : 11
Format : PGS
Muxing mode : zlib
Codec ID : S_HDMV/PGS
Codec ID/Info : Picture based subtitle format used on BDs/HD-DVDs
Language : Dutch
Default : No
Forced : No

Text #10
ID : 12
Format : PGS
Muxing mode : zlib
Codec ID : S_HDMV/PGS
Codec ID/Info : Picture based subtitle format used on BDs/HD-DVDs
Language : Norwegian
Default : No
Forced : No

Text #11
ID : 13
Format : PGS
Muxing mode : zlib
Codec ID : S_HDMV/PGS
Codec ID/Info : Picture based subtitle format used on BDs/HD-DVDs
Language : Portuguese
Default : No
Forced : No

Text #12
ID : 14
Format : PGS
Muxing mode : zlib
Codec ID : S_HDMV/PGS
Codec ID/Info : Picture based subtitle format used on BDs/HD-DVDs
Language : Finnish
Default : No
Forced : No

Text #13
ID : 15
Format : PGS
Muxing mode : zlib
Codec ID : S_HDMV/PGS
Codec ID/Info : Picture based subtitle format used on BDs/HD-DVDs
Language : Swedish
Default : No
Forced : No

Text #14
ID : 16
Format : PGS
Muxing mode : zlib
Codec ID : S_HDMV/PGS
Codec ID/Info : Picture based subtitle format used on BDs/HD-DVDs
Language : English
Default : No
Forced : No

Text #15
ID : 17
Format : PGS
Muxing mode : zlib
Codec ID : S_HDMV/PGS
Codec ID/Info : Picture based subtitle format used on BDs/HD-DVDs
Language : Japanese
Default : No
Forced : No

Menu
00:00:00.000 : en:Terrorize This
00:06:43.820 : en:Top Gun Actor
00:13:27.932 : en:Welcome to Team Base
00:18:33.696 : en:Or Should I Say Hakmed?
00:24:19.375 : en:I Like Balls
00:31:18.418 : en:Bakalakadaka Street
00:38:05.700 : en:I Promise, I Will Never Die
00:43:40.910 : en:Panama Canal
00:49:47.067 : en:We Have No Intelligence!
00:54:51.580 : en:I'm So Ronery
01:00:11.858 : en:Film Actors Guild
01:06:07.213 : en:Montage
01:11:50.306 : en:We're Guards!
01:17:11.502 : en:Panthers
01:22:34.533 : en:I'm A Smoker
01:30:17.078 : en:So Long Earthlings!

Files:

  • Team America World Police (2004) (1080p BDRip x265 10bit DTS-HD MA 5.1 - r0b0t) [TAoE].mkv (7.7 GB)

There are currently no comments. Feel free to leave one :)

Code:

  • udp://tracker.coppersurfer.tk:6969/announce
  • udp://tracker.internetwarriors.net:1337/announce
  • http://tracker.opentrackr.org:1337/announce
  • udp://denis.stalker.upeer.me:6969/announce
  • udp://tracker.internetwarriors.net:1337
  • udp://9.rarbg.me:2720/announce
  • udp://explodie.org:6969/announce
  • udp://tracker.cyberia.is:6969/announce
  • udp://thetracker.org/announce
  • udp://open.demonii.si:1337/announce