Eric Clapton - 1990-02-10 - London, England - Orchestra Nights Ta...

  • Category Music
  • Type Concerts
  • Language English
  • Total size 854.3 MB
  • Uploaded By mmjr
  • Downloads 321
  • Last checked 2 weeks ago
  • Date uploaded 2 weeks ago
  • Seeders 15
  • Leechers 3

Infohash : 45230C5284FF35D4D02A55018BD76C9173A6D4F1

Eric Clapton
"Orchestra Nights"
London, England
February 10, 1990

3BR Records - SB 6

Disc 1:
1) Layla Intro
2) Crossroads
3) Bell Bottom Blues
4) Lay Down Sally
5) Holy Mother
6) I Shot the Sheriff
7) Hard Times
8) Can't Find My Way Home
9) Edge of Darkness
10) Old Love
11) Wonderful Tonight

Disc 2:
1) White Room
2) Concerto for Electric Guitar: First Movement
3) Concerto for Electric Guitar: Second Movement
4) Band Introduction / Interlude
5) Layla
6) Sunshine of Your Love

Band Lineup:

Eric performed with The National Philharmonic Orchestra, with Michael Kamen as conductor, plus

Eric Clapton - Guitar, Vocals
Phil Palmer - Guitar
Nathan East - Bass
Greg Phillinganes - Keyboards
Steve Ferrone - Drums
Ray Cooper - Percussion

Geetarz Comments:

This is a remastered, enhanced version from a private collector and its sound quality is far superior to that on any of the "official" releases.

A stunning recording, and an essential "Top 10" keystone of any EC collection.

Presented here with a secure rip directly from 3BR Originals, directly from Igor and The Professor:

Original 3BR Mitsui Gold CD-R > LiteOn iHAP322 > EAC v. 0.99 Prebeta 4 (Secure Mode, Offset Correct @ +6, 0) > FLAC (Level 8) > You !

A quick word about 3BR ... 3BR is a "For Fans, By Fans" operation, and as such, never sells recordings. So, there is no such thing as a "3BR Silver", as they have never released pressed or replicated CDs. If you see someone who claims to have "3BR Silvers", you should keep this in mind. There are many people out there who claim that everything they upload is "from silvers", but if you don't see a scan of the "silver" with the upload, you should keep that in mind. Obviously, even a scan can be obtained from the internet in some cases, so even that is not an indication of quality.

When it comes to EAC ... audio CDs do not contain the same sort of error correction found on CD-ROM discs, which is why a "700MB" CD-R can actually hold 737MB (80 minutes) of audio. For this reason, the use of a secure ripper is essential in order to obtain accurate copies of the source disc. There are several utilities which serve this purpose, of which "Exact Audio Copy" (exactaudiocopy.de) is the most well known. The name might be a little misleading, because EAC has the ability to rip in a conventional "fast" mode (called "burst"). This mode supplies absolutely NO error correction of any kind, and copying a disc this way serves no useful purpose. The other method is "secure", in which EAC uses various methods to ensure an accurate copy of the source with no generational loss. When combined with a properly calibrated offset, this ensures quality extractions.

Using EAC in burst mode is sort of like buying a Ferrari and then installing a trailer hitch ... useless.

So, when checking out uploads, always see if the uploader has used a secure ripper like EAC, properly calibrated an offset, used a secure ripping method, and included the logs so you can see the results for yourself before wasting time on a download. If EAC logs are included in a torrent, download and inspect them before wasting bandwidth ... "burst" mode is an indication of poor ripping practices, allowing you to make judgments before you download.

In the end, music trading is built on mututal reputation and trust, and providing scans and EAC logs is one more way of finding out what constitutes quality in the trading pool.

Ask questions, get answers, and let's all expect more, and help take things to a new level in a new year and a new decade.

length expanded size cdr WAVE problems fmt ratio filename
5:02.48 53385740 B --- -- ---xx flac 0.5204 E:\clapton_nat-phil-orch.1990-02-10.t-flac16\Disc 1\Track01.flac
5:39.55 59929004 B --- -- ---xx flac 0.6555 E:\clapton_nat-phil-orch.1990-02-10.t-flac16\Disc 1\Track02.flac
6:20.58 67168460 B --- -- ---xx flac 0.6030 E:\clapton_nat-phil-orch.1990-02-10.t-flac16\Disc 1\Track03.flac
6:27.34 68346812 B --- -- ---xx flac 0.6129 E:\clapton_nat-phil-orch.1990-02-10.t-flac16\Disc 1\Track04.flac
5:36.70 59435084 B --- -- ---xx flac 0.6022 E:\clapton_nat-phil-orch.1990-02-10.t-flac16\Disc 1\Track05.flac
8:17.48 87783740 B --- -- ---xx flac 0.6399 E:\clapton_nat-phil-orch.1990-02-10.t-flac16\Disc 1\Track06.flac
3:45.53 39814700 B --- -- ---xx flac 0.5583 E:\clapton_nat-phil-orch.1990-02-10.t-flac16\Disc 1\Track07.flac
6:49.45 72253484 B --- -- ---xx flac 0.5854 E:\clapton_nat-phil-orch.1990-02-10.t-flac16\Disc 1\Track08.flac
6:49.43 72248780 B --- -- ---xx flac 0.5903 E:\clapton_nat-phil-orch.1990-02-10.t-flac16\Disc 1\Track09.flac
9:30.14 100580972 B --- -- ---xx flac 0.5745 E:\clapton_nat-phil-orch.1990-02-10.t-flac16\Disc 1\Track10.flac
9:42.01 102667196 B --- -- ---xx flac 0.5340 E:\clapton_nat-phil-orch.1990-02-10.t-flac16\Disc 1\Track11.flac
6:08.30 64985804 B --- -- ---xx flac 0.6409 E:\clapton_nat-phil-orch.1990-02-10.t-flac16\Disc 2\Track01.flac
14:42.61 155728316 B --- -- ---xx flac 0.5492 E:\clapton_nat-phil-orch.1990-02-10.t-flac16\Disc 2\Track02.flac
16:28.02 174287948 B --- -- ---xx flac 0.5690 E:\clapton_nat-phil-orch.1990-02-10.t-flac16\Disc 2\Track03.flac
2:02.38 21610220 B --- -- ---xx flac 0.6298 E:\clapton_nat-phil-orch.1990-02-10.t-flac16\Disc 2\Track04.flac
14:03.59 148844012 B --- -- ---xx flac 0.5782 E:\clapton_nat-phil-orch.1990-02-10.t-flac16\Disc 2\Track05.flac
16:28.37 174370268 B --- -- ---xx flac 0.6155 E:\clapton_nat-phil-orch.1990-02-10.t-flac16\Disc 2\Track06.flac
143:56.21 1523440540 B 0.5872 (17 files)



fe651e1383935f52d374caf40846d6c7 *clapton_nat-phil-orch.1990-02-10.t-flac16.ffp
20de97f42c34680f6f0579143023f88f *clapton_nat-phil-orch.1990-02-10.t-flac16.st5
e638d627c2b9de63690f1d2bebaf2ba9 *Disc 1\Disc 1.log
db0fb1c630da3e9a826c7da8dfe355de *Disc 1\Track01.flac
21a3fd2d7c60bd13945e98f7f947f3b2 *Disc 1\Track02.flac
b4758359935b1fb7a3a72d92336af116 *Disc 1\Track03.flac
f8822a1a4ade2ca030f1e0c0102bf8aa *Disc 1\Track04.flac
5be272dd48a39c725f7365f5691b5e5a *Disc 1\Track05.flac
7a2a2e168fa9de2fc5bb09595796b385 *Disc 1\Track06.flac
b6456774b6a61ca92c43201e1e9eb7ab *Disc 1\Track07.flac
542d5a4e29c2d9ef78567d5929596bbc *Disc 1\Track08.flac
7d0ddcdae9d29d5b1efb226a685b18d5 *Disc 1\Track09.flac
5aca5268d77faa4b57297b35a9e5735c *Disc 1\Track10.flac
8967208369ff471b0871e42517c875e9 *Disc 1\Track11.flac
f880f8af54bca069df1ae6d9e766895f *Disc 2\Disc 2.log
0286211a9f01aa2acc52e2e34d5de2ac *Disc 2\Track01.flac
3e157b14a67f5cfca6bddae7051ad8fa *Disc 2\Track02.flac
e2b9f96b77ed329137df3469fa374d7c *Disc 2\Track03.flac
9a7f42260a4f95f70fd7e519578eb034 *Disc 2\Track04.flac
0f1441944c77061ecd900ed31709ee55 *Disc 2\Track05.flac
3a7084564b106a5bb8ce596938600a20 *Disc 2\Track06.flac
f50cb5b13ac2da1a8825eb03fc484f18 *Extras\Eric Clapton - 1990-02-10 - London, England - Orchestra Nights (3BR) shntool.txt
eb0e562e64c860d80c4f4bda05e88f22 *Extras\Eric Clapton - 1990-02-10 - London, England - Orchestra Nights (3BR).m3u
b04f77083dc5913437a5e5ac8187581f *Extras\Eric Clapton - 1990-02-10 - London, England - Orchestra Nights (3BR).txt
aeadd6e793f79215dfdb149759266d1d *Extras\orchestra_night_back.jpg
cce103c1ce0ab1fd38aaeb59d8c30a5e *Extras\orchestra_night_front.jpg
7b4c3b81b73eacc13b937384de50ec40 *Extras\orchestra-nights-disc-1.jpg
0a678e33112ecbc5df789b95082a0ac7 *Extras\orchestra-nights-disc-2.jpg

Files:

clapton_nat-phil-orch.1990-02-10.t-flac16 Disc 1
  • Disc 1.log (4.4 KB)
  • Track01.flac (26.5 MB)
  • Track02.flac (37.5 MB)
  • Track03.flac (38.6 MB)
  • Track04.flac (40.0 MB)
  • Track05.flac (34.1 MB)
  • Track06.flac (53.6 MB)
  • Track07.flac (21.2 MB)
  • Track08.flac (40.3 MB)
  • Track09.flac (40.7 MB)
  • Track10.flac (55.1 MB)
  • Track11.flac (52.3 MB)
Disc 2
  • Disc 2.log (3.0 KB)
  • Track01.flac (39.7 MB)
  • Track02.flac (81.6 MB)
  • Track03.flac (94.6 MB)
  • Track04.flac (13.0 MB)
  • Track05.flac (82.1 MB)
  • Track06.flac (102.4 MB)
Extras
  • Eric Clapton - 1990-02-10 - London, England - Orchestra Nights (3BR) shntool.txt (2.3 KB)
  • Eric Clapton - 1990-02-10 - London, England - Orchestra Nights (3BR).m3u (1.1 KB)
  • Eric Clapton - 1990-02-10 - London, England - Orchestra Nights (3BR).txt (3.6 KB)
  • orchestra-nights-disc-1.jpg (459.5 KB)
  • orchestra-nights-disc-2.jpg (462.7 KB)
  • orchestra_night_back.jpg (135.9 KB)
  • orchestra_night_front.jpg (161.8 KB)
  • clapton_nat-phil-orch.1990-02-10.t-flac16.ffp (0.9 KB)
  • clapton_nat-phil-orch.1990-02-10.t-flac16.md5 (1.8 KB)
  • clapton_nat-phil-orch.1990-02-10.t-flac16.st5 (1.1 KB)

There are currently no comments. Feel free to leave one :)

Code:

  • udp://tracker.opentrackr.org:1337/announce
  • udp://tracker.leechers-paradise.org:6969/announce
  • udp://tracker.coppersurfer.tk:6969/announce