Dum Laga Ke Haisha (2015) Hindi (1080p BluRay x265 HEVC 10bit DDP...

  • Category Movies
  • Type Bollywood
  • Language Hindi
  • Total size 4.3 GB
  • Uploaded By Musafirboy
  • Downloads 420
  • Last checked 4 days ago
  • Date uploaded 1 week ago
  • Seeders 9
  • Leechers 5

Dum Laga Ke Haisha

Bollywood 2015.

Infohash : 8FED4C2D50D8460A727572AEE9CA96AF2A86C117








Dum Laga Ke Haisha (2015) Hindi
1080p BluRay x265 HEVC 10bit DDP 5.1 ESub Chapters











Source Information


Code:

Dum Laga ke Haisha (2015) 1080p BluRay Remux AVC DTS-HD MA 5.1 - KRaLiMaRKo (25.1 GB)



Media Information


Code:

General
Complete name : Dum Laga Ke Haisha (2015) Hindi (1080p BluRay x265 10bit Q22) - [Musafirboy].mkv
Format : Matroska
Format version : Version 4
File size : 4.34 GiB
Duration : 1 h 50 min
Overall bit rate : 5 626 kb/s
Encoded date : UTC 2020-06-29 10:39:28

Video
ID : 1
Format : HEVC
Format/Info : High Efficiency Video Coding
Format profile : Main [email protected]@High
Codec ID : V_MPEGH/ISO/HEVC
Duration : 1 h 50 min
Bit rate : 4 985 kb/s
Width : 1 920 pixels
Height : 800 pixels
Display aspect ratio : 2.40:1
Frame rate mode : Constant
Frame rate : 24.000 FPS
Color space : YUV
Chroma subsampling : 4:2:0
Bit depth : 10 bits
Bits/(Pixel*Frame) : 0.135
Stream size : 3.84 GiB (89%)
Writing library : x265 3.2+9-971180b100f8:[Windows][GCC 9.2.0][64 bit] 10bit
Encoding settings : cpuid=1111039 / frame-threads=4 / numa-pools=24 / wpp / no-pmode / no-pme / no-psnr / no-ssim / log-level=2 / input-csp=1 / input-res=1920x800 / interlace=0 / total-frames=158916 / level-idc=50 / high-tier=1 / uhd-bd=0 / ref=3 / no-allow-non-conformance / no-repeat-headers / annexb / no-aud / no-hrd / info / hash=0 / no-temporal-layers / open-gop / min-keyint=24 / keyint=250 / gop-lookahead=0 / bframes=4 / b-adapt=2 / b-pyramid / bframe-bias=0 / rc-lookahead=20 / lookahead-slices=5 / scenecut=40 / radl=0 / no-splice / no-intra-refresh / ctu=64 / min-cu-size=8 / no-rect / no-amp / max-tu-size=32 / tu-inter-depth=1 / tu-intra-depth=1 / limit-tu=0 / rdoq-level=0 / dynamic-rd=0.00 / no-ssim-rd / signhide / no-tskip / nr-intra=0 / nr-inter=0 / no-constrained-intra / strong-intra-smoothing / max-merge=3 / limit-refs=1 / no-limit-modes / me=1 / subme=5 / merange=57 / temporal-mvp / no-frame-dup / no-hme / weightp / no-weightb / no-analyze-src-pics / deblock=0:0 / sao / no-sao-non-deblock / rd=3 / selective-sao=4 / early-skip / rskip / no-fast-intra / no-tskip-fast / no-cu-lossless / b-intra / no-splitrd-skip / rdpenalty=0 / psy-rd=2.00 / psy-rdoq=0.00 / no-rd-refine / no-lossless / cbqpoffs=0 / crqpoffs=0 / rc=crf / crf=22.0 / qcomp=0.60 / qpstep=4 / stats-write=0 / stats-read=0 / vbv-maxrate=30000 / vbv-bufsize=30000 / vbv-init=0.9 / crf-max=0.0 / crf-min=0.0 / ipratio=1.40 / pbratio=1.30 / aq-mode=3 / aq-strength=1.00 / cutree / zone-count=0 / no-strict-cbr / qg-size=32 / no-rc-grain / qpmax=69 / qpmin=0 / no-const-vbv / sar=0 / overscan=0 / videoformat=5 / range=0 / colorprim=1 / transfer=1 / colormatrix=1 / chromaloc=0 / display-window=0 / cll=0,0 / min-luma=0 / max-luma=1023 / log2-max-poc-lsb=8 / vui-timing-info / vui-hrd-info / slices=1 / no-opt-qp-pps / no-opt-ref-list-length-pps / no-multi-pass-opt-rps / scenecut-bias=0.05 / no-opt-cu-delta-qp / no-aq-motion / no-hdr / no-hdr-opt / no-dhdr10-opt / no-idr-recovery-sei / analysis-reuse-level=5 / scale-factor=0 / refine-intra=0 / refine-inter=0 / refine-mv=1 / refine-ctu-distortion=0 / no-limit-sao / ctu-info=0 / no-lowpass-dct / refine-analysis-type=0 / copy-pic=1 / max-ausize-factor=1.0 / no-dynamic-refine / no-single-sei / no-hevc-aq / no-svt / no-field / qp-adaptation-range=1.00
Language : Hindi
Default : Yes
Forced : No
Color range : Limited
Color primaries : BT.709
Transfer characteristics : BT.709
Matrix coefficients : BT.709

Audio
ID : 2
Format : E-AC-3
Format/Info : Enhanced AC-3
Commercial name : Dolby Digital Plus
Codec ID : A_EAC3
Duration : 1 h 50 min
Bit rate mode : Constant
Bit rate : 640 kb/s
Channel(s) : 6 channels
Channel layout : L R C LFE Ls Rs
Sampling rate : 48.0 kHz
Frame rate : 31.250 FPS (1536 SPF)
Compression mode : Lossy
Stream size : 504 MiB (11%)
Language : Hindi
Service kind : Complete Main
Default : Yes
Forced : No

Subtitle
ID : 3
Format : UTF-8
Codec ID : S_TEXT/UTF8
Codec ID/Info : UTF-8 Plain Text
Duration : 1 h 45 min
Bit rate : 43 b/s
Count of elements : 1150
Stream size : 33.7 KiB (0%)
Language : English
Default : Yes
Forced : No

Chapters
00:00:00.000 : Tu...♪
00:03:04.625 : Meet the Bride
00:08:37.958 : Sunder Susheel...♪
00:10:52.750 : Just Married
00:16:02.208 : An Incomplete Night
00:21:21.042 : Enticing Prem
00:31:05.500 : Visiting Parents
00:39:29.667 : Moh Moh Ke Dhaage (I)...♪
00:42:06.208 : At War
00:48:42.458 : Sandhya Leaves
00:54:01.125 : The Drift
01:03:46.708 : The Challenge
01:07:08.167 : Courtroom Drama
01:13:59.458 : Prem's Theme
01:16:40.667 : A Failed Attempt
01:20:33.417 : Heart to Heart
01:30:47.083 : The Competition
01:38:24.833 : Dum Laga Ke Haisha...♪
01:43:26.750 : Moh Moh Ke Dhaage (II)...♪
01:45:39.083 : Dard Karaara...♪










Code:

Note from Musafirboy
Please donate for seedboxes to help seeding 24/7
BTC - 1FcbsFAUq1DT1SV7XKjwM7fBE86ktN59uX


Files:

Dum Laga Ke Haisha (2015) Hindi (1080p BluRay x265 10bit Q22) - [Musafirboy]
  • Dum Laga Ke Haisha (2015) Hindi (1080p BluRay x265 10bit Q22) - [Musafirboy].mkv (4.3 GB)
  • Encoded by Musafirboy.txt (0.4 KB)

Comments

Code:

  • udp://tracker.leechers-paradise.org:6969/announce
  • udp://tracker.opentrackr.org:1337/announce
  • udp://p4p.arenabg.com:1337/announce
  • udp://9.rarbg.to:2710/announce
  • udp://9.rarbg.me:2710/announce
  • udp://exodus.desync.com:6969/announce
  • udp://tracker.cyberia.is:6969/announce
  • udp://open.stealth.si:80/announce
  • udp://tracker.tiny-vps.com:6969/announce
  • udp://retracker.lanta-net.ru:2710/announce
  • udp://tracker.torrent.eu.org:451/announce
  • udp://tracker.moeking.me:6969/announce
  • udp://bt1.archive.org:6969/announce
  • udp://bt2.archive.org:6969/announce