Stuart Little (1999) (1080p BDRip x265 10bit EAC3 5.1 - r0b0t) [T...

  • Category Movies
  • Type HEVC/x265
  • Language English
  • Total size 5.9 GB
  • Uploaded By Goki
  • Downloads 295
  • Last checked 1 week ago
  • Date uploaded 1 week ago
  • Seeders 23
  • Leechers 10

Stuart Little

AdventureAnimationComedyFantasyScience FictionFamily

The adventures of a heroic and debonair stalwart mouse named Stuart Little with human qualities, who faces some comic misadventures while searching for his lost bird friend and living with a human family as their child.

Infohash : 1E50DA18932935D8321E896F81A054A376C5DF5A



Hello everyone,
We are TAoE, a small team of passionate encoders who love encoding. We try our best to provide you with high quality releases.

Requests for movies and shows are welcome.
We have a form for encode requests which can be found here
Encode requests form
submit your request and it will be added to our encoding request list
You can view our encoding request list here
Encode requests list


When or if we encode it will depend on if we can obtain a good source to encode with and
if one of the TAoE encoders chooses to encode it. Unfortunately we are not able to encode everything,
new members are welcome as that helps us encode more content!

If you would like to join TAoE submit your request here!
TAoE member applications form




Stuart Little (1999) IMDB







Source


Stuart.Little.1999.REPACK.BluRay.1080p.DTS-HD.MA.5.1.AVC.REMUX-FraMeSToR

Media Information


General
Unique ID : 169385356049481991048981983047642591925 (0x7F6E6ED4DEBB348B68430288235132B5)
Complete name : Stuart Little (1999) (1080p BDRip x265 10bit EAC3 5.1 - r0b0t) [TAoE].mkv
Format : Matroska
Format version : Version 4
File size : 5.93 GiB
Duration : 1 h 24 min
Overall bit rate : 10.0 Mb/s
Writing application : Lavf58.29.100
Writing library : Lavf58.29.100
ErrorDetectionType : Per level 1

Video
ID : 1
Format : HEVC
Format/Info : High Efficiency Video Coding
Format profile : Main [email protected]@Main
Codec ID : V_MPEGH/ISO/HEVC
Duration : 1 h 24 min
Bit rate : 8 372 kb/s
Width : 1 920 pixels
Height : 1 080 pixels
Display aspect ratio : 16:9
Frame rate mode : Variable
Frame rate : 23.976 (23976/1000) FPS
Original frame rate : 23.976 (24000/1001) FPS
Color space : YUV
Chroma subsampling : 4:2:0
Bit depth : 10 bits
Bits/(Pixel*Frame) : 0.168
Stream size : 4.95 GiB (83%)
Title : Encoded by r0b0t for TAoE using Shinguru V1.2
Writing library : x265 3.2+35-acc5d16999e2:[Windows][GCC 9.2.1][64 bit] 10bit
Encoding settings : cpuid=1111039 / frame-threads=5 / numa-pools=12,12,12,12 / wpp / no-pmode / no-pme / no-psnr / no-ssim / log-level=2 / input-csp=1 / input-res=1920x1080 / interlace=0 / total-frames=0 / level-idc=0 / high-tier=1 / uhd-bd=0 / ref=4 / no-allow-non-conformance / no-repeat-headers / annexb / no-aud / no-hrd / info / hash=0 / no-temporal-layers / open-gop / min-keyint=23 / keyint=250 / gop-lookahead=0 / bframes=8 / b-adapt=2 / b-pyramid / bframe-bias=0 / rc-lookahead=80 / lookahead-slices=4 / scenecut=40 / hist-scenecut=0 / radl=0 / no-splice / no-intra-refresh / ctu=64 / min-cu-size=8 / no-rect / no-amp / max-tu-size=32 / tu-inter-depth=1 / tu-intra-depth=1 / limit-tu=0 / rdoq-level=2 / dynamic-rd=0.00 / no-ssim-rd / signhide / no-tskip / nr-intra=0 / nr-inter=0 / no-constrained-intra / no-strong-intra-smoothing / max-merge=3 / limit-refs=3 / limit-modes / me=3 / subme=5 / merange=57 / temporal-mvp / no-frame-dup / no-hme / weightp / no-weightb / no-analyze-src-pics / deblock=0:0 / sao / no-sao-non-deblock / rd=4 / selective-sao=4 / no-early-skip / rskip / no-fast-intra / no-tskip-fast / no-cu-lossless / no-b-intra / no-splitrd-skip / rdpenalty=0 / psy-rd=1.30 / psy-rdoq=2.00 / no-rd-refine / no-lossless / cbqpoffs=0 / crqpoffs=0 / rc=crf / crf=19.0 / qcomp=0.60 / qpstep=4 / stats-write=0 / stats-read=0 / ipratio=1.40 / pbratio=1.30 / aq-mode=4 / aq-strength=1.10 / cutree / zone-count=0 / no-strict-cbr / qg-size=32 / no-rc-grain / qpmax=69 / qpmin=0 / no-const-vbv / sar=1 / overscan=0 / videoformat=5 / range=0 / colorprim=2 / transfer=2 / colormatrix=2 / chromaloc=0 / display-window=0 / cll=0,0 / min-luma=0 / max-luma=1023 / log2-max-poc-lsb=8 / vui-timing-info / vui-hrd-info / slices=1 / no-opt-qp-pps / no-opt-ref-list-length-pps / no-multi-pass-opt-rps / scenecut-bias=0.05 / hist-threshold=0.01 / no-opt-cu-delta-qp / no-aq-motion / no-hdr10 / no-hdr10-opt / no-dhdr10-opt / no-idr-recovery-sei / analysis-reuse-level=0 / analysis-save-reuse-level=0 / analysis-load-reuse-level=0 / scale-factor=0 / refine-intra=0 / refine-inter=0 / refine-mv=1 / refine-ctu-distortion=0 / no-limit-sao / ctu-info=0 / no-lowpass-dct / refine-analysis-type=0 / copy-pic=1 / max-ausize-factor=1.0 / no-dynamic-refine / no-single-sei / no-hevc-aq / no-svt / no-field / qp-adaptation-range=1.00 / no-scenecut-aware-qpconformance-window-offsets / right=0 / bottom=0
Default : Yes
Forced : No
Color range : Limited

Audio #1
ID : 2
Format : E-AC-3
Format/Info : Enhanced AC-3
Commercial name : Dolby Digital Plus
Codec ID : A_EAC3
Duration : 1 h 24 min
Bit rate mode : Constant
Bit rate : 448 kb/s
Channel(s) : 6 channels
Channel layout : L R C LFE Ls Rs
Sampling rate : 48.0 kHz
Frame rate : 31.250 FPS (1536 SPF)
Bit depth : 24 bits
Compression mode : Lossy
Stream size : 271 MiB (4%)
Writing library : Lavc58.54.100 eac3
Language : English
Service kind : Complete Main
Default : Yes
Forced : No

Audio #2
ID : 23
Format : E-AC-3
Format/Info : Enhanced AC-3
Commercial name : Dolby Digital Plus
Codec ID : A_EAC3
Duration : 1 h 24 min
Bit rate mode : Constant
Bit rate : 192 kb/s
Channel(s) : 2 channels
Channel layout : L R
Sampling rate : 48.0 kHz
Frame rate : 31.250 FPS (1536 SPF)
Bit depth : 32 bits
Compression mode : Lossy
Stream size : 116 MiB (2%)
Title : Commentary by Rob Minkoff/Henry Anderson
Writing library : Lavc58.54.100 eac3
Language : English
Service kind : Complete Main
Default : No
Forced : No

Audio #3
ID : 24
Format : E-AC-3
Format/Info : Enhanced AC-3
Commercial name : Dolby Digital Plus
Codec ID : A_EAC3
Duration : 1 h 24 min
Bit rate mode : Constant
Bit rate : 192 kb/s
Channel(s) : 2 channels
Channel layout : L R
Sampling rate : 48.0 kHz
Frame rate : 31.250 FPS (1536 SPF)
Bit depth : 32 bits
Compression mode : Lossy
Stream size : 116 MiB (2%)
Title : Commentary by John Dykstra/Jerome Chen
Writing library : Lavc58.54.100 eac3
Language : English
Service kind : Complete Main
Default : No
Forced : No

Text #1
ID : 3
Format : PGS
Codec ID : S_HDMV/PGS
Codec ID/Info : Picture based subtitle format used on BDs/HD-DVDs
Duration : 1 h 17 min
Bit rate : 37.2 kb/s
Count of elements : 2225
Stream size : 20.7 MiB (0%)
Title : English
Language : English
Default : Yes
Forced : No

Text #2
ID : 4
Format : PGS
Codec ID : S_HDMV/PGS
Codec ID/Info : Picture based subtitle format used on BDs/HD-DVDs
Duration : 1 h 17 min
Bit rate : 18.4 kb/s
Count of elements : 2201
Stream size : 10.2 MiB (0%)
Title : Arabic
Language : Arabic
Default : No
Forced : No

Text #3
ID : 5
Format : PGS
Codec ID : S_HDMV/PGS
Codec ID/Info : Picture based subtitle format used on BDs/HD-DVDs
Duration : 1 h 17 min
Bit rate : 32.6 kb/s
Count of elements : 2225
Stream size : 18.2 MiB (0%)
Title : Czech
Language : Czech
Default : No
Forced : No

Text #4
ID : 6
Format : PGS
Codec ID : S_HDMV/PGS
Codec ID/Info : Picture based subtitle format used on BDs/HD-DVDs
Duration : 1 h 17 min
Bit rate : 40.4 kb/s
Count of elements : 2229
Stream size : 22.5 MiB (0%)
Title : German
Language : German
Default : No
Forced : No

Text #5
ID : 7
Format : PGS
Codec ID : S_HDMV/PGS
Codec ID/Info : Picture based subtitle format used on BDs/HD-DVDs
Duration : 1 h 17 min
Bit rate : 32.2 kb/s
Count of elements : 2224
Stream size : 17.9 MiB (0%)
Title : Italian
Language : Italian
Default : No
Forced : No

Text #6
ID : 8
Format : PGS
Codec ID : S_HDMV/PGS
Codec ID/Info : Picture based subtitle format used on BDs/HD-DVDs
Duration : 1 h 17 min
Bit rate : 29.5 kb/s
Count of elements : 2163
Stream size : 16.5 MiB (0%)
Title : Polish
Language : Polish
Default : No
Forced : No

Text #7
ID : 9
Format : PGS
Codec ID : S_HDMV/PGS
Codec ID/Info : Picture based subtitle format used on BDs/HD-DVDs
Duration : 1 h 17 min
Bit rate : 36.3 kb/s
Count of elements : 2195
Stream size : 20.3 MiB (0%)
Title : Portuguese (Brazilian)
Language : Portuguese
Default : No
Forced : No

Text #8
ID : 10
Format : PGS
Codec ID : S_HDMV/PGS
Codec ID/Info : Picture based subtitle format used on BDs/HD-DVDs
Duration : 1 h 17 min
Bit rate : 33.9 kb/s
Count of elements : 2243
Stream size : 18.9 MiB (0%)
Title : Slovak
Language : Slovak
Default : No
Forced : No

Text #9
ID : 11
Format : PGS
Codec ID : S_HDMV/PGS
Codec ID/Info : Picture based subtitle format used on BDs/HD-DVDs
Duration : 1 h 17 min
Bit rate : 29.7 kb/s
Count of elements : 2213
Stream size : 16.6 MiB (0%)
Title : Spanish (Latin American)
Language : Spanish
Default : No
Forced : No

Text #10
ID : 12
Format : PGS
Codec ID : S_HDMV/PGS
Codec ID/Info : Picture based subtitle format used on BDs/HD-DVDs
Duration : 1 h 17 min
Bit rate : 35.3 kb/s
Count of elements : 2221
Stream size : 19.7 MiB (0%)
Title : Turkish
Language : Turkish
Default : No
Forced : No

Text #11
ID : 13
Format : PGS
Codec ID : S_HDMV/PGS
Codec ID/Info : Picture based subtitle format used on BDs/HD-DVDs
Duration : 1 h 18 min
Bit rate : 34.4 kb/s
Count of elements : 2129
Stream size : 19.3 MiB (0%)
Title : Greek
Language : Greek
Default : No
Forced : No

Text #12
ID : 14
Format : PGS
Codec ID : S_HDMV/PGS
Codec ID/Info : Picture based subtitle format used on BDs/HD-DVDs
Duration : 1 h 17 min
Bit rate : 26.0 kb/s
Count of elements : 2238
Stream size : 14.5 MiB (0%)
Title : Hindi
Language : Hindi
Default : No
Forced : No

Text #13
ID : 15
Format : PGS
Codec ID : S_HDMV/PGS
Codec ID/Info : Picture based subtitle format used on BDs/HD-DVDs
Duration : 1 h 20 min
Bit rate : 71.2 kb/s
Count of elements : 2998
Stream size : 41.1 MiB (1%)
Title : English (Commentary #1)
Language : English
Default : No
Forced : No

Text #14
ID : 16
Format : PGS
Codec ID : S_HDMV/PGS
Codec ID/Info : Picture based subtitle format used on BDs/HD-DVDs
Duration : 1 h 20 min
Bit rate : 51.9 kb/s
Count of elements : 2778
Stream size : 29.9 MiB (0%)
Title : German (Commentary #1)
Language : German
Default : No
Forced : No

Text #15
ID : 17
Format : PGS
Codec ID : S_HDMV/PGS
Codec ID/Info : Picture based subtitle format used on BDs/HD-DVDs
Duration : 1 h 20 min
Bit rate : 59.5 kb/s
Count of elements : 2849
Stream size : 34.4 MiB (1%)
Title : Italian (Commentary #1)
Language : Italian
Default : No
Forced : No

Text #16
ID : 18
Format : PGS
Codec ID : S_HDMV/PGS
Codec ID/Info : Picture based subtitle format used on BDs/HD-DVDs
Duration : 1 h 20 min
Bit rate : 51.2 kb/s
Count of elements : 2875
Stream size : 29.5 MiB (0%)
Title : Spanish (Commentary #1)
Language : Spanish
Default : No
Forced : No

Text #17
ID : 19
Format : PGS
Codec ID : S_HDMV/PGS
Codec ID/Info : Picture based subtitle format used on BDs/HD-DVDs
Duration : 1 h 22 min
Bit rate : 69.1 kb/s
Count of elements : 3034
Stream size : 41.0 MiB (1%)
Title : English (Commentary #2)
Language : English
Default : No
Forced : No

Text #18
ID : 20
Format : PGS
Codec ID : S_HDMV/PGS
Codec ID/Info : Picture based subtitle format used on BDs/HD-DVDs
Duration : 1 h 22 min
Bit rate : 56.3 kb/s
Count of elements : 2814
Stream size : 33.4 MiB (1%)
Title : German (Commentary #2)
Language : German
Default : No
Forced : No

Text #19
ID : 21
Format : PGS
Codec ID : S_HDMV/PGS
Codec ID/Info : Picture based subtitle format used on BDs/HD-DVDs
Duration : 1 h 22 min
Bit rate : 60.4 kb/s
Count of elements : 2805
Stream size : 35.9 MiB (1%)
Title : Italian (Commentary #2)
Language : Italian
Default : No
Forced : No

Text #20
ID : 22
Format : PGS
Codec ID : S_HDMV/PGS
Codec ID/Info : Picture based subtitle format used on BDs/HD-DVDs
Duration : 1 h 22 min
Bit rate : 56.0 kb/s
Count of elements : 2819
Stream size : 33.2 MiB (1%)
Title : Spanish (Commentary #2)
Language : Spanish
Default : No
Forced : No

Menu
00:00:00.000 : :00:00:00.000
00:06:37.314 : :00:06:37.314
00:10:36.469 : :00:10:36.469
00:16:26.611 : :00:16:26.611
00:21:02.052 : :00:21:02.052
00:27:26.603 : :00:27:26.603
00:31:27.636 : :00:31:27.636
00:37:06.182 : :00:37:06.182
00:42:30.089 : :00:42:30.089
00:45:26.140 : :00:45:26.140
00:51:05.521 : :00:51:05.521
00:55:42.798 : :00:55:42.798
00:59:59.805 : :00:59:59.805
01:04:10.472 : :01:04:10.472
01:09:52.772 : :01:09:52.772
01:13:29.614 : :01:13:29.614

Source Information


General
Unique ID : 221864862198097273784568402254870499623 (0xA6E99E407C372D529B58B782D6F65127)
Complete name : Stuart.Little.1999.REPACK.BluRay.1080p.DTS-HD.MA.5.1.AVC.REMUX-FraMeSToR.mkv
Format : Matroska
Format version : Version 4
File size : 19.5 GiB
Duration : 1 h 24 min
Overall bit rate mode : Variable
Overall bit rate : 33.0 Mb/s
Encoded date : UTC 2017-03-20 21:00:15
Writing application : mkvmerge v9.9.0 ('Pick Up') 64bit
Writing library : libebml v1.3.4 + libmatroska v1.4.5

Video
ID : 1
Format : AVC
Format/Info : Advanced Video Codec
Format profile : [email protected]
Format settings : CABAC / 2 Ref Frames
Format settings, CABAC : Yes
Format settings, Reference : 2 frames
Codec ID : V_MPEG4/ISO/AVC
Duration : 1 h 24 min
Bit rate mode : Variable
Bit rate : 27.8 Mb/s
Width : 1 920 pixels
Height : 1 080 pixels
Display aspect ratio : 16:9
Frame rate mode : Constant
Frame rate : 23.976 (24000/1001) FPS
Color space : YUV
Chroma subsampling : 4:2:0
Bit depth : 8 bits
Scan type : Progressive
Bits/(Pixel*Frame) : 0.559
Stream size : 16.4 GiB (84%)
Default : Yes
Forced : No

Audio #1
ID : 2
Format : DTS XLL
Format/Info : Digital Theater Systems
Commercial name : DTS-HD Master Audio
Codec ID : A_DTS
Duration : 1 h 24 min
Bit rate mode : Variable
Bit rate : 3 952 kb/s
Channel(s) : 6 channels
Channel layout : C L R Ls Rs LFE
Sampling rate : 48.0 kHz
Frame rate : 93.750 FPS (512 SPF)
Bit depth : 24 bits
Compression mode : Lossless
Stream size : 2.34 GiB (12%)
Language : English
Default : Yes
Forced : No

Audio #2
ID : 23
Format : AC-3
Format/Info : Audio Coding 3
Commercial name : Dolby Digital
Codec ID : A_AC3
Duration : 1 h 24 min
Bit rate mode : Constant
Bit rate : 192 kb/s
Channel(s) : 2 channels
Channel layout : L R
Sampling rate : 48.0 kHz
Frame rate : 31.250 FPS (1536 SPF)
Compression mode : Lossy
Stream size : 116 MiB (1%)
Title : Commentary by Rob Minkoff/Henry Anderson
Language : English
Service kind : Complete Main
Default : No
Forced : No

Audio #3
ID : 24
Format : AC-3
Format/Info : Audio Coding 3
Commercial name : Dolby Digital
Codec ID : A_AC3
Duration : 1 h 24 min
Bit rate mode : Constant
Bit rate : 192 kb/s
Channel(s) : 2 channels
Channel layout : L R
Sampling rate : 48.0 kHz
Frame rate : 31.250 FPS (1536 SPF)
Compression mode : Lossy
Stream size : 116 MiB (1%)
Title : Commentary by John Dykstra/Jerome Chen
Language : English
Service kind : Complete Main
Default : No
Forced : No

Text #1
ID : 3
Format : PGS
Codec ID : S_HDMV/PGS
Codec ID/Info : Picture based subtitle format used on BDs/HD-DVDs
Duration : 1 h 17 min
Bit rate : 37.2 kb/s
Count of elements : 2225
Stream size : 20.7 MiB (0%)
Title : English
Language : English
Default : Yes
Forced : No

Text #2
ID : 4
Format : PGS
Codec ID : S_HDMV/PGS
Codec ID/Info : Picture based subtitle format used on BDs/HD-DVDs
Duration : 1 h 17 min
Bit rate : 18.4 kb/s
Count of elements : 2201
Stream size : 10.2 MiB (0%)
Title : Arabic
Language : Arabic
Default : No
Forced : No

Text #3
ID : 5
Format : PGS
Codec ID : S_HDMV/PGS
Codec ID/Info : Picture based subtitle format used on BDs/HD-DVDs
Duration : 1 h 17 min
Bit rate : 32.6 kb/s
Count of elements : 2225
Stream size : 18.2 MiB (0%)
Title : Czech
Language : Czech
Default : No
Forced : No

Text #4
ID : 6
Format : PGS
Codec ID : S_HDMV/PGS
Codec ID/Info : Picture based subtitle format used on BDs/HD-DVDs
Duration : 1 h 17 min
Bit rate : 40.4 kb/s
Count of elements : 2229
Stream size : 22.5 MiB (0%)
Title : German
Language : German
Default : No
Forced : No

Text #5
ID : 7
Format : PGS
Codec ID : S_HDMV/PGS
Codec ID/Info : Picture based subtitle format used on BDs/HD-DVDs
Duration : 1 h 17 min
Bit rate : 32.2 kb/s
Count of elements : 2224
Stream size : 17.9 MiB (0%)
Title : Italian
Language : Italian
Default : No
Forced : No

Text #6
ID : 8
Format : PGS
Codec ID : S_HDMV/PGS
Codec ID/Info : Picture based subtitle format used on BDs/HD-DVDs
Duration : 1 h 17 min
Bit rate : 29.5 kb/s
Count of elements : 2163
Stream size : 16.5 MiB (0%)
Title : Polish
Language : Polish
Default : No
Forced : No

Text #7
ID : 9
Format : PGS
Codec ID : S_HDMV/PGS
Codec ID/Info : Picture based subtitle format used on BDs/HD-DVDs
Duration : 1 h 17 min
Bit rate : 36.3 kb/s
Count of elements : 2195
Stream size : 20.3 MiB (0%)
Title : Portuguese (Brazilian)
Language : Portuguese
Default : No
Forced : No

Text #8
ID : 10
Format : PGS
Codec ID : S_HDMV/PGS
Codec ID/Info : Picture based subtitle format used on BDs/HD-DVDs
Duration : 1 h 17 min
Bit rate : 33.9 kb/s
Count of elements : 2243
Stream size : 18.9 MiB (0%)
Title : Slovak
Language : Slovak
Default : No
Forced : No

Text #9
ID : 11
Format : PGS
Codec ID : S_HDMV/PGS
Codec ID/Info : Picture based subtitle format used on BDs/HD-DVDs
Duration : 1 h 17 min
Bit rate : 29.7 kb/s
Count of elements : 2213
Stream size : 16.6 MiB (0%)
Title : Spanish (Latin American)
Language : Spanish
Default : No
Forced : No

Text #10
ID : 12
Format : PGS
Codec ID : S_HDMV/PGS
Codec ID/Info : Picture based subtitle format used on BDs/HD-DVDs
Duration : 1 h 17 min
Bit rate : 35.3 kb/s
Count of elements : 2221
Stream size : 19.7 MiB (0%)
Title : Turkish
Language : Turkish
Default : No
Forced : No

Text #11
ID : 13
Format : PGS
Codec ID : S_HDMV/PGS
Codec ID/Info : Picture based subtitle format used on BDs/HD-DVDs
Duration : 1 h 18 min
Bit rate : 34.4 kb/s
Count of elements : 2129
Stream size : 19.3 MiB (0%)
Title : Greek
Language : Greek
Default : No
Forced : No

Text #12
ID : 14
Format : PGS
Codec ID : S_HDMV/PGS
Codec ID/Info : Picture based subtitle format used on BDs/HD-DVDs
Duration : 1 h 17 min
Bit rate : 26.0 kb/s
Count of elements : 2238
Stream size : 14.5 MiB (0%)
Title : Hindi
Language : Hindi
Default : No
Forced : No

Text #13
ID : 15
Format : PGS
Codec ID : S_HDMV/PGS
Codec ID/Info : Picture based subtitle format used on BDs/HD-DVDs
Duration : 1 h 20 min
Bit rate : 71.2 kb/s
Count of elements : 2998
Stream size : 41.1 MiB (0%)
Title : English (Commentary #1)
Language : English
Default : No
Forced : No

Text #14
ID : 16
Format : PGS
Codec ID : S_HDMV/PGS
Codec ID/Info : Picture based subtitle format used on BDs/HD-DVDs
Duration : 1 h 20 min
Bit rate : 51.9 kb/s
Count of elements : 2778
Stream size : 29.9 MiB (0%)
Title : German (Commentary #1)
Language : German
Default : No
Forced : No

Text #15
ID : 17
Format : PGS
Codec ID : S_HDMV/PGS
Codec ID/Info : Picture based subtitle format used on BDs/HD-DVDs
Duration : 1 h 20 min
Bit rate : 59.5 kb/s
Count of elements : 2849
Stream size : 34.4 MiB (0%)
Title : Italian (Commentary #1)
Language : Italian
Default : No
Forced : No

Text #16
ID : 18
Format : PGS
Codec ID : S_HDMV/PGS
Codec ID/Info : Picture based subtitle format used on BDs/HD-DVDs
Duration : 1 h 20 min
Bit rate : 51.2 kb/s
Count of elements : 2875
Stream size : 29.5 MiB (0%)
Title : Spanish (Commentary #1)
Language : Spanish
Default : No
Forced : No

Text #17
ID : 19
Format : PGS
Codec ID : S_HDMV/PGS
Codec ID/Info : Picture based subtitle format used on BDs/HD-DVDs
Duration : 1 h 22 min
Bit rate : 69.1 kb/s
Count of elements : 3034
Stream size : 41.0 MiB (0%)
Title : English (Commentary #2)
Language : English
Default : No
Forced : No

Text #18
ID : 20
Format : PGS
Codec ID : S_HDMV/PGS
Codec ID/Info : Picture based subtitle format used on BDs/HD-DVDs
Duration : 1 h 22 min
Bit rate : 56.3 kb/s
Count of elements : 2814
Stream size : 33.4 MiB (0%)
Title : German (Commentary #2)
Language : German
Default : No
Forced : No

Text #19
ID : 21
Format : PGS
Codec ID : S_HDMV/PGS
Codec ID/Info : Picture based subtitle format used on BDs/HD-DVDs
Duration : 1 h 22 min
Bit rate : 60.4 kb/s
Count of elements : 2805
Stream size : 35.9 MiB (0%)
Title : Italian (Commentary #2)
Language : Italian
Default : No
Forced : No

Text #20
ID : 22
Format : PGS
Codec ID : S_HDMV/PGS
Codec ID/Info : Picture based subtitle format used on BDs/HD-DVDs
Duration : 1 h 22 min
Bit rate : 56.0 kb/s
Count of elements : 2819
Stream size : 33.2 MiB (0%)
Title : Spanish (Commentary #2)
Language : Spanish
Default : No
Forced : No

Menu
00:00:00.000 : en:00:00:00.000
00:06:37.314 : en:00:06:37.314
00:10:36.469 : en:00:10:36.469
00:16:26.611 : en:00:16:26.611
00:21:02.052 : en:00:21:02.052
00:27:26.603 : en:00:27:26.603
00:31:27.636 : en:00:31:27.636
00:37:06.182 : en:00:37:06.182
00:42:30.089 : en:00:42:30.089
00:45:26.140 : en:00:45:26.140
00:51:05.521 : en:00:51:05.521
00:55:42.798 : en:00:55:42.798
00:59:59.805 : en:00:59:59.805
01:04:10.472 : en:01:04:10.472
01:09:52.772 : en:01:09:52.772
01:13:29.614 : en:01:13:29.614

Files:

  • Stuart Little (1999) (1080p BDRip x265 10bit EAC3 5.1 - r0b0t) [TAoE].mkv (5.9 GB)

There are currently no comments. Feel free to leave one :)

Code:

  • udp://tracker.coppersurfer.tk:6969/announce
  • udp://tracker.internetwarriors.net:1337/announce
  • http://tracker.opentrackr.org:1337/announce
  • udp://denis.stalker.upeer.me:6969/announce
  • udp://tracker.internetwarriors.net:1337
  • udp://9.rarbg.me:2720/announce
  • udp://explodie.org:6969/announce
  • udp://tracker.cyberia.is:6969/announce
  • udp://thetracker.org/announce
  • udp://open.demonii.si:1337/announce