Deh Sukh 2 (2020) Hindi 720p CinemaDosti WEB-DL x264 AAC 150MB - ...

  • Category XXX
  • Type Video
  • Language Hindi
  • Total size 174.3 MB
  • Uploaded By MovCr
  • Downloads 14179
  • Last checked 1 month ago
  • Date uploaded 2 months ago
  • Seeders 60
  • Leechers 9

Infohash : 88D3B21ECBCC2DD132C29B56E0260076A56BE40B

Visit Us @ https://MovCr.to








Deh Sukh 2 (2020) Hindi 720p CinemaDosti WEB-DL x264 AAC 150MB - MovCr







Video
ID : 1
Format : AVC
Format/Info : Advanced Video Codec
Format profile : [email protected]
Format settings : CABAC / 4 Ref Frames
Format settings, CABAC : Yes
Format settings, Reference frames : 4 frames
Codec ID : V_MPEG4/ISO/AVC
Duration : 22 min 0 s
Bit rate : 940 kb/s
Width : 1 280 pixels
Height : 548 pixels
Display aspect ratio : 2.35:1
Frame rate mode : Constant
Frame rate : 25.000 FPS
Color space : YUV
Chroma subsampling : 4:2:0
Bit depth : 8 bits
Scan type : Progressive
Bits/(Pixel*Frame) : 0.054
Stream size : 148 MiB (85%)
Title : MovCr

Audio
ID : 2
Format : AAC LC
Format/Info : Advanced Audio Codec Low Complexity
Codec ID : A_AAC-2
Duration : 22 min 0 s
Bit rate : 165 kb/s
Channel(s) : 2 channels
Channel layout : L R
Sampling rate : 48.0 kHz
Frame rate : 46.875 FPS (1024 SPF)
Compression mode : Lossy
Delay relative to video : -44 ms
Stream size : 26.0 MiB (15%)
Title : MovCr
Language : Hindi
Default : Yes
Forced : No























Files:

  • (18+) - www.MovCr.to - Deh Sukh 2 (2020) Hindi 720p CinemaDosti WEB-DL x264 AAC 150MB - MovCr.mkv (174.3 MB)

There are currently no comments. Feel free to leave one :)

Code:

  • http://tracker.nyap2p.com:8080/announce
  • udp://p4p.arenabg.com:1337/announce
  • udp://tracker.iamhansen.xyz:2000/announce
  • udp://opentor.org:2710/announce
  • http://h4.trakx.nibba.trade:80/announce
  • udp://tracker.zerobytes.xyz:1337/announce
  • https://tracker.nitrix.me:443/announce
  • udp://tracker.moeking.me:6969/announce
  • udp://tracker.leechers-paradise.org:6969/announce
  • udp://tracker.opentrackr.org:1337/announce
  • udp://tracker.coppersurfer.tk:6969/announce
  • udp://9.rarbg.to:2960/announce
  • udp://9.rarbg.me:2810/announce
  • udp://tracker.tiny-vps.com:6969/announce
  • udp://open.stealth.si:80/announce